Disc ID “yk9gdZkreQPUL.pxeRI0AuFlH3U-

CD TOC details

Full TOC: 1 5 108557 150 21312 42787 70215 90567
Disc ID: yk9gdZkreQPUL.pxeRI0AuFlH3U-
FreeDB: 3805a505
Total tracks: 5
Total length: 24:07
Track details:
Track Start Length End
Time Sectors Time Sectors Time Sectors
1 0:02 150 4:42 21162 4:44 21312
2 4:44 21312 4:46 21475 9:30 42787
3 9:30 42787 6:06 27428 15:36 70215
4 15:36 70215 4:31 20352 20:08 90567
5 20:08 90567 4:00 17990 24:07 108557

Attached to releases

Position Title Artist Format Country/Date Label Catalog# Barcode
1/1 (show tracklist) Ko-Wrecktion EP Ko-Wreck Technique CD
  • GB1999-12-06
Chocolate Industries, Warp (UK independent label) chlt007cd, wap128cd 5021603128026
1/1 (show tracklist) Ko-Wrecktion EP Ko-Wreck Technique CD
  • US2000-02-16
Chocolate Industries chlt007cd 677514000729