Disc ID “whLq_493Tbig8lg0ANM3VoY7BmM-

CD TOC details

Full TOC: 1 17 307212 150 20055 39685 57977 80765 102517 125125 141047 156637 160797 174732 196662 220235 241535 254422 260175 286042
Disc ID: whLq_493Tbig8lg0ANM3VoY7BmM-
FreeDB: 000ffe11
Total tracks: 17
Total length: 1:08:16
Track details:
Track Start Length End
Time Sectors Time Sectors Time Sectors
1 0:02 150 4:25 19905 4:27 20055
2 4:27 20055 4:22 19630 8:49 39685
3 8:49 39685 4:04 18292 12:53 57977
4 12:53 57977 5:04 22788 17:57 80765
5 17:57 80765 4:50 21752 22:47 102517
6 22:47 102517 5:01 22608 27:48 125125
7 27:48 125125 3:32 15922 31:21 141047
8 31:21 141047 3:28 15590 34:48 156637
9 34:48 156637 0:55 4160 35:44 160797
10 35:44 160797 3:06 13935 38:50 174732
11 38:50 174732 4:52 21930 43:42 196662
12 43:42 196662 5:14 23573 48:56 220235
13 48:56 220235 4:44 21300 53:40 241535
14 53:40 241535 2:52 12887 56:32 254422
15 56:32 254422 1:17 5753 57:49 260175
16 57:49 260175 5:45 25867 1:03:34 286042
17 1:03:34 286042 4:42 21170 1:08:16 307212

Attached to releases

Position Title Artist Format Date Country Label Catalog# Barcode
1/1 E. 1999 Eternal Bone Thugs‐n‐Harmony CD Ruthless Records (Compton, LA hip-hop) 88561-5539-2 088561553920