Disc ID “n95uDN3cOdr6fetstLW3.ilxztU-

CD TOC details

Full TOC: 1 19 306750 150 13922 26700 40162 52097 62480 75620 102580 118632 132660 146477 162950 180132 196575 210680 229865 253952 276605 295257
Disc ID: n95uDN3cOdr6fetstLW3.ilxztU-
FreeDB: 1e0ff813
Total tracks: 19
Total length: 1:08:10
Track details:
Track Start Length End
Time Sectors Time Sectors Time Sectors
1 0:02 150 3:04 13772 3:06 13922
2 3:06 13922 2:50 12778 5:56 26700
3 5:56 26700 2:59 13462 8:55 40162
4 8:55 40162 2:39 11935 11:35 52097
5 11:35 52097 2:18 10383 13:53 62480
6 13:53 62480 2:55 13140 16:48 75620
7 16:48 75620 5:59 26960 22:48 102580
8 22:48 102580 3:34 16052 26:22 118632
9 26:22 118632 3:07 14028 29:29 132660
10 29:29 132660 3:04 13817 32:33 146477
11 32:33 146477 3:40 16473 36:13 162950
12 36:13 162950 3:49 17182 40:02 180132
13 40:02 180132 3:39 16443 43:41 196575
14 43:41 196575 3:08 14105 46:49 210680
15 46:49 210680 4:16 19185 51:05 229865
16 51:05 229865 5:21 24087 56:26 253952
17 56:26 253952 5:02 22653 1:01:28 276605
18 1:01:28 276605 4:09 18652 1:05:37 295257
19 1:05:37 295257 2:33 11493 1:08:10 306750

Attached to releases

Position Title Artist Format Date Country Label Catalog# Barcode
1/1 The Essential James Bond City of Prague Philharmonic Orchestra conducted by Nic Raine HDCD Silva America SSD 1034 738572103422
1/1 The Essential James Bond Various Artists HDCD Silva Screen Records (main imprint of Silva Screen Records Ltd.) FILMCD 007 5014929000725