Disc ID “mlYiTseaMUYDUVbFqiO1QTbeKUE-

CD TOC details

Full TOC: 1 12 177787 150 16240 31756 47942 64879 78409 90514 104812 117530 132091 146476 160503
Disc ID: mlYiTseaMUYDUVbFqiO1QTbeKUE-
FreeDB: 9b09400c
Total tracks: 12
Total length: 39:30
Track details:
Track Start Length End
Time Sectors Time Sectors Time Sectors
1 0:02 150 3:35 16090 3:37 16240
2 3:37 16240 3:27 15516 7:03 31756
3 7:03 31756 3:36 16186 10:39 47942
4 10:39 47942 3:46 16937 14:25 64879
5 14:25 64879 3:00 13530 17:25 78409
6 17:25 78409 2:41 12105 20:07 90514
7 20:07 90514 3:11 14298 23:17 104812
8 23:17 104812 2:50 12718 26:07 117530
9 26:07 117530 3:14 14561 29:21 132091
10 29:21 132091 3:12 14385 32:33 146476
11 32:33 146476 3:07 14027 35:40 160503
12 35:40 160503 3:50 17284 39:30 177787

Attached to releases

Position Title Artist Format Date Country Label Catalog# Barcode
1/1 Handwritten Shawn Mendes CD Island (imprint of Island Records, a division of Universal Music Group) B0022449-02 602547135551
1/1 Handwritten Shawn Mendes CD Island (imprint of Island Records, a division of Universal Music Group) 00602547135551 602547135551