Disc ID “hc.peh1A1Z4.lzvjCuZat_EpRuE-

CD TOC details

Full TOC: 1 16 276843 150 15618 35635 51339 64417 81756 98021 111448 126283 146790 165785 187390 208665 222788 238471 258166
Disc ID: hc.peh1A1Z4.lzvjCuZat_EpRuE-
FreeDB: f30e6910
Total tracks: 16
Total length: 1:01:31
Track details:
Track Start Length End
Time Sectors Time Sectors Time Sectors
1 0:02 150 3:26 15468 3:28 15618
2 3:28 15618 4:27 20017 7:55 35635
3 7:55 35635 3:29 15704 11:25 51339
4 11:25 51339 2:54 13078 14:19 64417
5 14:19 64417 3:51 17339 18:10 81756
6 18:10 81756 3:37 16265 21:47 98021
7 21:47 98021 2:59 13427 24:46 111448
8 24:46 111448 3:18 14835 28:04 126283
9 28:04 126283 4:33 20507 32:37 146790
10 32:37 146790 4:13 18995 36:50 165785
11 36:50 165785 4:48 21605 41:39 187390
12 41:39 187390 4:44 21275 46:22 208665
13 46:22 208665 3:08 14123 49:31 222788
14 49:31 222788 3:29 15683 53:00 238471
15 53:00 238471 4:23 19695 57:22 258166
16 57:22 258166 4:09 18677 1:01:31 276843

Attached to releases

Position Title Artist Format Date Country Label Catalog# Barcode
1/2 Moulin Rouge: Collectors's Edition Various Artists CD Interscope Records 493 259-2 606949325923
1/1 Music From Baz Luhrmann’s Film Moulin Rouge Various Artists CD Interscope Records 490 507-2 606949050726