Disc ID “e3blhuEZsFm5ImMQZX7xHun36gI-

CD TOC details

Full TOC: 1 11 242018 150 13128 33605 41833 79738 91020 97868 101488 128165 165413 192133
Disc ID: e3blhuEZsFm5ImMQZX7xHun36gI-
FreeDB: 7c0c980b
Total tracks: 11
Total length: 53:47
Track details:
Track Start Length End
Time Sectors Time Sectors Time Sectors
1 0:02 150 2:53 12978 2:55 13128
2 2:55 13128 4:33 20477 7:28 33605
3 7:28 33605 1:50 8228 9:18 41833
4 9:18 41833 8:25 37905 17:43 79738
5 17:43 79738 2:30 11282 20:14 91020
6 20:14 91020 1:31 6848 21:45 97868
7 21:45 97868 0:48 3620 22:33 101488
8 22:33 101488 5:56 26677 28:29 128165
9 28:29 128165 8:17 37248 36:46 165413
10 36:46 165413 5:56 26720 42:42 192133
11 42:42 192133 11:05 49885 53:47 242018

Attached to releases

Position Title Artist Format Date Country Label Catalog# Barcode
1/1 The Cave Down to the Earth Far East Family Band CD MU Records CD-7139-M