Disc ID “dcHGI83YwHtvuhYe8NFVJt0wtJY-

CD TOC details

Full TOC: 1 10 126950 150 18520 26997 38189 49965 62157 68420 85090 99350 110921
Disc ID: dcHGI83YwHtvuhYe8NFVJt0wtJY-
FreeDB: 84069a0a
Total tracks: 10
Total length: 28:13
Track details:
Track Start Length End
Time Sectors Time Sectors Time Sectors
1 0:02 150 4:05 18370 4:07 18520
2 4:07 18520 1:53 8477 6:00 26997
3 6:00 26997 2:29 11192 8:29 38189
4 8:29 38189 2:37 11776 11:06 49965
5 11:06 49965 2:43 12192 13:49 62157
6 13:49 62157 1:24 6263 15:12 68420
7 15:12 68420 3:42 16670 18:55 85090
8 18:55 85090 3:10 14260 22:05 99350
9 22:05 99350 2:34 11571 24:39 110921
10 24:39 110921 3:34 16029 28:13 126950

Attached to releases

Position Title Artist Format Date Country Label Catalog# Barcode
1/1 Grandma Got Run Over by a Reindeer Dr. Elmo CD KRB Music Companies KRB8325-2 741914832522