Disc ID “YWbZMb6Wv.mSnBAIxCG1yI6Igf0-

CD TOC details

Full TOC: 1 17 197000 150 11342 21865 33070 48177 61300 71312 82625 94800 103127 111705 125580 140147 154652 165340 172135 182942
Disc ID: YWbZMb6Wv.mSnBAIxCG1yI6Igf0-
FreeDB: dc0a4011
Total tracks: 17
Total length: 43:47
Track details:
Track Start Length End
Time Sectors Time Sectors Time Sectors
1 0:02 150 2:29 11192 2:31 11342
2 2:31 11342 2:20 10523 4:52 21865
3 4:52 21865 2:29 11205 7:21 33070
4 7:21 33070 3:21 15107 10:42 48177
5 10:42 48177 2:55 13123 13:37 61300
6 13:37 61300 2:13 10012 15:51 71312
7 15:51 71312 2:31 11313 18:22 82625
8 18:22 82625 2:42 12175 21:04 94800
9 21:04 94800 1:51 8327 22:55 103127
10 22:55 103127 1:54 8578 24:49 111705
11 24:49 111705 3:05 13875 27:54 125580
12 27:54 125580 3:14 14567 31:09 140147
13 31:09 140147 3:13 14505 34:22 154652
14 34:22 154652 2:23 10688 36:45 165340
15 36:45 165340 1:31 6795 38:15 172135
16 38:15 172135 2:24 10807 40:39 182942
17 40:39 182942 3:07 14058 43:47 197000

Attached to releases

Position Title Artist Format Country/Date Label Catalog# Barcode
1/1 (show tracklist) The White Stripes The White Stripes CD
  • US1999-06-15
Sympathy for the Record Industry SFTRI 577 [none]
1/1 (show tracklist) The White Stripes The White Stripes CD
  • GB2001-11-26
XL Recordings, Third Man Records XLCD 149 634904014926
1/1 (show tracklist) The White Stripes The White Stripes CD
  • US2002-06-11
V2 (imprint of V2 Music Ltd. and its international subsidiaries), Third Man Records 63881-27131-2 638812713124
1/1 (show tracklist) The White Stripes The White Stripes CD
  • US2008-07-01
Warner Bros. Records (1958–2019; “WB” logo, with or without “records” beneath or on banner across), Third Man Records 512134-2 093624984320
1/1 (show tracklist) The White Stripes The White Stripes CD
  • CA2002-06-11
Third Man Records, V2 (imprint of V2 Music Ltd. and its international subsidiaries) 63881-27131-2 638812713124