Disc ID “W8uO6.DD9QkzvsnEfh6SVGoWayU-

CD TOC details

Full TOC: 1 11 213575 150 10975 23700 41527 54582 68625 80512 109962 134985 160710 194617
Disc ID: W8uO6.DD9QkzvsnEfh6SVGoWayU-
FreeDB: 960b1d0b
Total tracks: 11
Total length: 47:28
Track details:
Track Start Length End
Time Sectors Time Sectors Time Sectors
1 0:02 150 2:24 10825 2:26 10975
2 2:26 10975 2:50 12725 5:16 23700
3 5:16 23700 3:58 17827 9:14 41527
4 9:14 41527 2:54 13055 12:08 54582
5 12:08 54582 3:07 14043 15:15 68625
6 15:15 68625 2:38 11887 17:53 80512
7 17:53 80512 6:33 29450 24:26 109962
8 24:26 109962 5:34 25023 30:00 134985
9 30:00 134985 5:43 25725 35:43 160710
10 35:43 160710 7:32 33907 43:15 194617
11 43:15 194617 4:13 18958 47:28 213575

Attached to releases

Position Title Artist Format Date Country Label Catalog# Barcode
1/1 Subterranean Homesick Blues Bob Dylan CD Columbia (imprint owned by CBS between 1938–1990 within US/CA/MX; owned worldwide by Sony Music Entertainment since 1991 except in JP) 465417 2 5099746541729
1/1 Bringing It All Back Home Bob Dylan CD Columbia (imprint owned by CBS between 1938–1990 within US/CA/MX; owned worldwide by Sony Music Entertainment since 1991 except in JP) 512353 2, 5123532000, COL 512353 2 5099751235323
1/2 Bringing It All Back Home Bob Dylan Hybrid SACD (CD layer) Columbia (imprint owned by CBS between 1938–1990 within US/CA/MX; owned worldwide by Sony Music Entertainment since 1991 except in JP) CH 90326 827969032664
1/1 Bringing It All Back Home Bob Dylan CD Columbia (imprint owned by CBS between 1938–1990 within US/CA/MX; owned worldwide by Sony Music Entertainment since 1991 except in JP) CK 92401 827969240120
1/1 Bringing It All Back Home Bob Dylan CD Sony Records International (Japanese TEXTLESS walking eye imprint) MHCP-371 4562109407945
1/1 Bringing It All Back Home Bob Dylan Hybrid SACD Columbia (imprint owned by CBS between 1938–1990 within US/CA/MX; owned worldwide by Sony Music Entertainment since 1991 except in JP) 512353 6, 5123536000, COL 512353 6 5099751235361
1/1 Bringing It All Back Home Bob Dylan Hybrid SACD Sony Records International (Japanese TEXTLESS walking eye imprint) MHCP-10003 4562109403671
1/1 Bringing It All Back Home Bob Dylan CD Columbia (imprint owned by CBS between 1938–1990 within US/CA/MX; owned worldwide by Sony Music Entertainment since 1991 except in JP) CDCOL 38801 6001208525238
1/1 Bringing It All Back Home Bob Dylan CD CBS/Sony (Japan) 28DP-1028 4988009580852
1/1 Bringing It All Back Home Bob Dylan CD CBS/Sony (Japan) CSCS-6011 4988009601120
1/1 Bringing It All Back Home Bob Dylan CD Sony Records (Japanese imprint) SRCS-9243 4988009924397
1/1 Subterranean Homesick Blues Bob Dylan CD Columbia (imprint owned by CBS between 1938–1990 within US/CA/MX; owned worldwide by Sony Music Entertainment since 1991 except in JP) 01-062515-10, CDCBS 62515 5099706251521
1/1 Subterranean Homesick Blues Bob Dylan CD CBS (CBS Records' international imprint from 1962–1990; renamed since 1991 as Columbia) CDCBS 62515 5099706251521
1/1 Subterranean Homesick Blues Bob Dylan CD CBS (CBS Records' international imprint from 1962–1990; renamed since 1991 as Columbia) 465417 2 5099746541729
1/1 Bringing It All Back Home Bob Dylan CD Columbia (imprint owned by CBS between 1938–1990 within US/CA/MX; owned worldwide by Sony Music Entertainment since 1991 except in JP) CK 09128
1/1 Bringing It All Back Home Bob Dylan CD Columbia (imprint owned by CBS between 1938–1990 within US/CA/MX; owned worldwide by Sony Music Entertainment since 1991 except in JP) CK 9128 074640912825
1/1 Bringing It All Back Home Bob Dylan CD Columbia (imprint owned by CBS between 1938–1990 within US/CA/MX; owned worldwide by Sony Music Entertainment since 1991 except in JP) CD 32344 5099703234428
6/10 The Bob Dylan 60's Collection Bob Dylan CD Columbia (imprint owned by CBS between 1938–1990 within US/CA/MX; owned worldwide by Sony Music Entertainment since 1991 except in JP) 88697 51773 2 886975177325
1/1 Bringing It All Back Home Bob Dylan CD Columbia (imprint owned by CBS between 1938–1990 within US/CA/MX; owned worldwide by Sony Music Entertainment since 1991 except in JP) MONO-88697761042 886977610424
1/1 Bringing It All Back Home Bob Dylan CD Columbia (imprint owned by CBS between 1938–1990 within US/CA/MX; owned worldwide by Sony Music Entertainment since 1991 except in JP) MONO-88697761042 886977929229