Disc ID “RHBn9C2RwA1E5EmubNiSXtMQ2_8-

CD TOC details

Full TOC: 1 18 307900 150 17097 45005 66892 81807 94540 102735 111517 126710 140532 164390 177162 188312 232055 242395 254732 274695 293172
Disc ID: RHBn9C2RwA1E5EmubNiSXtMQ2_8-
FreeDB: fe100712
Total tracks: 18
Total length: 1:08:25
Track details:
Track Start Length End
Time Sectors Time Sectors Time Sectors
1 0:02 150 3:46 16947 3:48 17097
2 3:48 17097 6:12 27908 10:00 45005
3 10:00 45005 4:52 21887 14:52 66892
4 14:52 66892 3:19 14915 18:11 81807
5 18:11 81807 2:50 12733 21:01 94540
6 21:01 94540 1:49 8195 22:50 102735
7 22:50 102735 1:57 8782 24:47 111517
8 24:47 111517 3:23 15193 28:09 126710
9 28:09 126710 3:04 13822 31:14 140532
10 31:14 140532 5:18 23858 36:32 164390
11 36:32 164390 2:50 12772 39:22 177162
12 39:22 177162 2:29 11150 41:51 188312
13 41:51 188312 9:43 43743 51:34 232055
14 51:34 232055 2:18 10340 53:52 242395
15 53:52 242395 2:44 12337 56:36 254732
16 56:36 254732 4:26 19963 1:01:03 274695
17 1:01:03 274695 4:06 18477 1:05:09 293172
18 1:05:09 293172 3:16 14728 1:08:25 307900

Attached to releases

Position Title Artist Format Date Country Label Catalog# Barcode
1/1 Requiem Dla Mojego Przyjaciela Zbigniew Preisner CD Erato 398-424196-2 639842419628
1/1 Requiem for My Friend Preisner CD Erato 3984 - 24146 - 2 639842414623
1/1 Requiem for My Friend Preisner CD Erato 3984-24146-2 639842414623