Disc ID “R3Mhj2Ask9jSlzVSbXTOouKFih8-

CD TOC details

Full TOC: 1 18 288194 150 12572 29400 40792 55381 69783 81964 96036 112015 130776 146872 160927 177483 200103 220336 242172 256189 274824
Disc ID: R3Mhj2Ask9jSlzVSbXTOouKFih8-
FreeDB: 0e0f0012
Total tracks: 18
Total length: 1:04:03
Track details:
Track Start Length End
Time Sectors Time Sectors Time Sectors
1 0:02 150 2:46 12422 2:48 12572
2 2:48 12572 3:44 16828 6:32 29400
3 6:32 29400 2:32 11392 9:04 40792
4 9:04 40792 3:15 14589 12:18 55381
5 12:18 55381 3:12 14402 15:30 69783
6 15:30 69783 2:42 12181 18:13 81964
7 18:13 81964 3:08 14072 21:20 96036
8 21:20 96036 3:33 15979 24:54 112015
9 24:54 112015 4:10 18761 29:04 130776
10 29:04 130776 3:35 16096 32:38 146872
11 32:38 146872 3:07 14055 35:46 160927
12 35:46 160927 3:41 16556 39:26 177483
13 39:26 177483 5:02 22620 44:28 200103
14 44:28 200103 4:30 20233 48:58 220336
15 48:58 220336 4:51 21836 53:49 242172
16 53:49 242172 3:07 14017 56:56 256189
17 56:56 256189 4:08 18635 1:01:04 274824
18 1:01:04 274824 2:58 13370 1:04:03 288194

Attached to releases

Position Title Artist Format Date Country Label Catalog# Barcode
1/2 Baby It's Cold Outside 2 Various Artists CD ABC Music (Australian Broadcasting Corporation in-house label) 532 6857 0600753268575