Disc ID “OAK4lnRPnS6yIrkp2Pe_tzIUx6M-”

CD TOC details

Full TOC: 1 11 221925 150 28015 46713 66260 95270 114895 134173 153030 167898 178628 210555
Disc ID: OAK4lnRPnS6yIrkp2Pe_tzIUx6M-
FreeDB: 8c0b8d0b
Total tracks: 11
Total length: 49:19
Track details:
Track Start Length End
Time Sectors Time Sectors Time Sectors
1 0:02 150 6:12 27865 6:14 28015
2 6:14 28015 4:09 18698 10:23 46713
3 10:23 46713 4:21 19547 14:43 66260
4 14:43 66260 6:27 29010 21:10 95270
5 21:10 95270 4:22 19625 25:32 114895
6 25:32 114895 4:17 19278 29:49 134173
7 29:49 134173 4:11 18857 34:00 153030
8 34:00 153030 3:18 14868 37:19 167898
9 37:19 167898 2:23 10730 39:42 178628
10 39:42 178628 7:06 31927 46:47 210555
11 46:47 210555 2:32 11370 49:19 221925

Attached to releases

Position Title Artist Format Date Country Label Catalog# Barcode
1/1 Palomine Bettie Serveert CD Matador 7 92285-2 075679228529
1/1 Palomine Bettie Serveert CD Guernica GU 3 CD
1/1 Palomine Bettie Serveert CD Brinkman Records BRCD 004 5413356926729