Disc ID “Jn7VMVtdO88d6GYeomiIJun8KRo-”

CD TOC details

Full TOC: 1 22 323485 183 39285 74325 81548 100615 106835 108848 114098 119980 122048 126088 136873 142668 155968 175080 196835 212705 231533 243173 256285 287048 300103
Disc ID: Jn7VMVtdO88d6GYeomiIJun8KRo-
FreeDB: 2f10d716
Total tracks: 22
Total length: 1:11:53
Track details:
Track Start Length End
Time Sectors Time Sectors Time Sectors
1 0:02 183 8:41 39102 8:44 39285
2 8:44 39285 7:47 35040 16:31 74325
3 16:31 74325 1:36 7223 18:07 81548
4 18:07 81548 4:14 19067 22:22 100615
5 22:22 100615 1:23 6220 23:44 106835
6 23:44 106835 0:27 2013 24:11 108848
7 24:11 108848 1:10 5250 25:21 114098
8 25:21 114098 1:18 5882 26:40 119980
9 26:40 119980 0:28 2068 27:07 122048
10 27:07 122048 0:54 4040 28:01 126088
11 28:01 126088 2:24 10785 30:25 136873
12 30:25 136873 1:17 5795 31:42 142668
13 31:42 142668 2:57 13300 34:40 155968
14 34:40 155968 4:15 19112 38:54 175080
15 38:54 175080 4:50 21755 43:44 196835
16 43:44 196835 3:32 15870 47:16 212705
17 47:16 212705 4:11 18828 51:27 231533
18 51:27 231533 2:35 11640 54:02 243173
19 54:02 243173 2:55 13112 56:57 256285
20 56:57 256285 6:50 30763 1:03:47 287048
21 1:03:47 287048 2:54 13055 1:06:41 300103
22 1:06:41 300103 5:12 23382 1:11:53 323485

Attached to releases

Position Title Artist Format Date Country Label Catalog# Barcode
1/1 Violin Favourites Maurice Hasson, Ian Brown Medium The Sound Corporation SIG999