Disc ID “HHmVeNnp_1QvoDJxEa.Y0exLA94-

CD TOC details

Full TOC: 1 16 276532 150 15565 35432 50987 63915 81122 97530 110992 125885 146460 165465 187097 208392 222420 238022 257792
Disc ID: HHmVeNnp_1QvoDJxEa.Y0exLA94-
FreeDB: f10e6510
Total tracks: 16
Total length: 1:01:27
Track details:
Track Start Length End
Time Sectors Time Sectors Time Sectors
1 0:02 150 3:26 15415 3:28 15565
2 3:28 15565 4:25 19867 7:52 35432
3 7:52 35432 3:27 15555 11:20 50987
4 11:20 50987 2:52 12928 14:12 63915
5 14:12 63915 3:49 17207 18:02 81122
6 18:02 81122 3:39 16408 21:40 97530
7 21:40 97530 2:59 13462 24:40 110992
8 24:40 110992 3:19 14893 27:58 125885
9 27:58 125885 4:34 20575 32:33 146460
10 32:33 146460 4:13 19005 36:46 165465
11 36:46 165465 4:48 21632 41:35 187097
12 41:35 187097 4:44 21295 46:19 208392
13 46:19 208392 3:07 14028 49:26 222420
14 49:26 222420 3:28 15602 52:54 238022
15 52:54 238022 4:24 19770 57:17 257792
16 57:17 257792 4:10 18740 1:01:27 276532

Attached to releases

Position Title Artist Format Date Country Label Catalog# Barcode
1/2 Moulin Rouge: Collectors's Edition Various Artists CD Interscope Records 493 259-2 606949325923
1/1 Music From Baz Luhrmann’s Film Moulin Rouge Various Artists CD Interscope Records 490 507-2 606949050726