Disc ID “C_3cWUEk_19pSG_NLY3luRrDp5A-

CD TOC details

Full TOC: 1 20 277573 150 11036 27324 45999 63627 73610 85616 102737 117207 128075 142314 152151 167346 180991 200567 215234 229891 241603 254179 265378
Disc ID: C_3cWUEk_19pSG_NLY3luRrDp5A-
FreeDB: 260e7214
Total tracks: 20
Total length: 1:01:41
Track details:
Track Start Length End
Time Sectors Time Sectors Time Sectors
1 0:02 150 2:25 10886 2:27 11036
2 2:27 11036 3:37 16288 6:04 27324
3 6:04 27324 4:09 18675 10:13 45999
4 10:13 45999 3:55 17628 14:08 63627
5 14:08 63627 2:13 9983 16:21 73610
6 16:21 73610 2:40 12006 19:02 85616
7 19:02 85616 3:48 17121 22:50 102737
8 22:50 102737 3:13 14470 26:03 117207
9 26:03 117207 2:25 10868 28:28 128075
10 28:28 128075 3:10 14239 31:38 142314
11 31:38 142314 2:11 9837 33:49 152151
12 33:49 152151 3:23 15195 37:11 167346
13 37:11 167346 3:02 13645 40:13 180991
14 40:13 180991 4:21 19576 44:34 200567
15 44:34 200567 3:16 14667 47:50 215234
16 47:50 215234 3:15 14657 51:05 229891
17 51:05 229891 2:36 11712 53:41 241603
18 53:41 241603 2:48 12576 56:29 254179
19 56:29 254179 2:29 11199 58:58 265378
20 58:58 265378 2:43 12195 1:01:41 277573

Attached to releases

Position Title Artist Format Date Country Label Catalog# Barcode
1/1 A Night on the Town: Swinging Tracks From the Rat Pack Era The Rat Pack CD EMI Music (do not use as release label! this is a music publisher) 0946 3 30211 2 9 094633021129