Disc ID “AmOuwKzroA5yDd_RWxptq_1uVuc-

CD TOC details

Full TOC: 1 11 193079 150 11258 24203 47522 60345 81241 95492 107389 129556 143370 162089
Disc ID: AmOuwKzroA5yDd_RWxptq_1uVuc-
FreeDB: 700a0c0b
Total tracks: 11
Total length: 42:54
Track details:
Track Start Length End
Time Sectors Time Sectors Time Sectors
1 0:02 150 2:28 11108 2:30 11258
2 2:30 11258 2:53 12945 5:23 24203
3 5:23 24203 5:11 23319 10:34 47522
4 10:34 47522 2:51 12823 13:25 60345
5 13:25 60345 4:39 20896 18:03 81241
6 18:03 81241 3:10 14251 21:13 95492
7 21:13 95492 2:39 11897 23:52 107389
8 23:52 107389 4:56 22167 28:47 129556
9 28:47 129556 3:04 13814 31:52 143370
10 31:52 143370 4:10 18719 36:01 162089
11 36:01 162089 6:53 30990 42:54 193079

Attached to releases

Position Title Artist Format Date Country Label Catalog# Barcode
2/2 Moulin Rouge: Collectors's Edition Various Artists CD Interscope Records 493 259-2 606949325923
1/1 Moulin Rouge! 2 Various Artists CD Interscope Records 06949 3228 2 606949322823
1/1 Moulin Rouge! 2 Various Artists CD Interscope Records 493 228-2 606949322823