Disc ID “15CAqChsq.ss1f.VRcebCgnB0MA-

CD TOC details

Full TOC: 1 17 307270 150 20075 39705 57997 80785 102537 125145 141067 156657 160817 174752 196682 220255 241555 254442 260195 286062
Disc ID: 15CAqChsq.ss1f.VRcebCgnB0MA-
FreeDB: fb0ffe11
Total tracks: 17
Total length: 1:08:17
Track details:
Track Start Length End
Time Sectors Time Sectors Time Sectors
1 0:02 150 4:26 19925 4:28 20075
2 4:28 20075 4:22 19630 8:49 39705
3 8:49 39705 4:04 18292 12:53 57997
4 12:53 57997 5:04 22788 17:57 80785
5 17:57 80785 4:50 21752 22:47 102537
6 22:47 102537 5:01 22608 27:49 125145
7 27:49 125145 3:32 15922 31:21 141067
8 31:21 141067 3:28 15590 34:49 156657
9 34:49 156657 0:55 4160 35:44 160817
10 35:44 160817 3:06 13935 38:50 174752
11 38:50 174752 4:52 21930 43:42 196682
12 43:42 196682 5:14 23573 48:57 220255
13 48:57 220255 4:44 21300 53:41 241555
14 53:41 241555 2:52 12887 56:33 254442
15 56:33 254442 1:17 5753 57:49 260195
16 57:49 260195 5:45 25867 1:03:34 286062
17 1:03:34 286062 4:43 21208 1:08:17 307270

Attached to releases

Position Title Artist Format Date Country Label Catalog# Barcode
1/1 E. 1999 Eternal Bone Thugs‐n‐Harmony CD Ruthless Records (Compton, LA hip-hop) 88561-5539-2 088561553920