Disc ID “0nlzX9_9zZZzOVXXMJyZH5Z.jys-

CD TOC details

Full TOC: 1 11 193082 150 11257 24202 47520 60345 81240 95490 107387 129555 143370 162087
Disc ID: 0nlzX9_9zZZzOVXXMJyZH5Z.jys-
FreeDB: 700a0c0b
Total tracks: 11
Total length: 42:54
Track details:
Track Start Length End
Time Sectors Time Sectors Time Sectors
1 0:02 150 2:28 11107 2:30 11257
2 2:30 11257 2:53 12945 5:23 24202
3 5:23 24202 5:11 23318 10:34 47520
4 10:34 47520 2:51 12825 13:25 60345
5 13:25 60345 4:39 20895 18:03 81240
6 18:03 81240 3:10 14250 21:13 95490
7 21:13 95490 2:39 11897 23:52 107387
8 23:52 107387 4:56 22168 28:47 129555
9 28:47 129555 3:04 13815 31:52 143370
10 31:52 143370 4:10 18717 36:01 162087
11 36:01 162087 6:53 30995 42:54 193082

Attached to releases

Position Title Artist Format Date Country Label Catalog# Barcode
2/2 Moulin Rouge: Collectors's Edition Various Artists CD Interscope Records 493 259-2 606949325923
1/1 Moulin Rouge! 2 Various Artists CD Interscope Records 06949 3228 2 606949322823
1/1 Moulin Rouge! 2 Various Artists CD Interscope Records 493 228-2 606949322823