Disc ID “zaCvup1RUGG40Ht.veb7pHI1LdI-

CD TOC details

Full TOC: 1 28 277689 150 18655 23488 26884 32388 36693 50867 60886 65142 76291 104365 110178 118379 130523 140444 146398 157713 161743 163027 168112 191355 199612 203605 230839 235776 246284 250328 253329
Disc ID: zaCvup1RUGG40Ht.veb7pHI1LdI-
FreeDB: 8b0e741c
Total tracks: 28
Total length: 1:01:43
Track details:
Track Start Length End
Time Sectors Time Sectors Time Sectors
1 0:02 150 4:07 18505 4:09 18655
2 4:09 18655 1:04 4833 5:13 23488
3 5:13 23488 0:45 3396 5:58 26884
4 5:58 26884 1:13 5504 7:12 32388
5 7:12 32388 0:57 4305 8:09 36693
6 8:09 36693 3:09 14174 11:18 50867
7 11:18 50867 2:14 10019 13:32 60886
8 13:32 60886 0:57 4256 14:29 65142
9 14:29 65142 2:29 11149 16:57 76291
10 16:57 76291 6:14 28074 23:12 104365
11 23:12 104365 1:18 5813 24:29 110178
12 24:29 110178 1:49 8201 26:18 118379
13 26:18 118379 2:42 12144 29:00 130523
14 29:00 130523 2:12 9921 31:13 140444
15 31:13 140444 1:19 5954 32:32 146398
16 32:32 146398 2:31 11315 35:03 157713
17 35:03 157713 0:54 4030 35:57 161743
18 35:57 161743 0:17 1284 36:14 163027
19 36:14 163027 1:08 5085 37:21 168112
20 37:21 168112 5:10 23243 42:31 191355
21 42:31 191355 1:50 8257 44:21 199612
22 44:21 199612 0:53 3993 45:15 203605
23 45:15 203605 6:03 27234 51:18 230839
24 51:18 230839 1:06 4937 52:24 235776
25 52:24 235776 2:20 10508 54:44 246284
26 54:44 246284 0:54 4044 55:38 250328
27 55:38 250328 0:40 3001 56:18 253329
28 56:18 253329 5:25 24360 1:01:43 277689

Attached to releases

Position Title Artist Format Date Country Label Catalog# Barcode
2/3 Matthäuspassion Johann Sebastian Bach; Stuttgarter Kantorei, Ensemble 94, Kay Johannsen CD Stuttgarter Kantorei