Disc ID “xj7LWUmMCkZo771mWEJa5AF9D3o-

CD TOC details

Full TOC: 1 5 43308 150 14153 21155 28383 37168
Disc ID: xj7LWUmMCkZo771mWEJa5AF9D3o-
FreeDB: 43023f05
Total tracks: 5
Total length: 9:37
Track details:
Track Start Length End
Time Sectors Time Sectors Time Sectors
1 0:02 150 3:07 14003 3:09 14153
2 3:09 14153 1:33 7002 4:42 21155
3 4:42 21155 1:36 7228 6:18 28383
4 6:18 28383 1:57 8785 8:16 37168
5 8:16 37168 1:22 6140 9:37 43308

Attached to releases

Position Title Artist Format Date Country Label Catalog# Barcode
2/2 Stillmatic Nas CD Columbia (imprint owned by CBS between 1938–1990 within US/CA/MX; owned worldwide by Sony Music Entertainment since 1991 except in JP)