Disc ID “wbGvM52SdbP2Hxizd5fHVF.3P2c-

CD TOC details

Full TOC: 1 11 275377 150 18310 38127 78852 99737 119567 141717 159407 190662 217340 235085
Disc ID: wbGvM52SdbP2Hxizd5fHVF.3P2c-
FreeDB: 980e550b
Total tracks: 11
Total length: 1:01:12
Track details:
Track Start Length End
Time Sectors Time Sectors Time Sectors
1 0:02 150 4:02 18160 4:04 18310
2 4:04 18310 4:24 19817 8:28 38127
3 8:28 38127 9:03 40725 17:31 78852
4 17:31 78852 4:38 20885 22:10 99737
5 22:10 99737 4:24 19830 26:34 119567
6 26:34 119567 4:55 22150 31:30 141717
7 31:30 141717 3:56 17690 35:25 159407
8 35:25 159407 6:57 31255 42:22 190662
9 42:22 190662 5:56 26678 48:18 217340
10 48:18 217340 3:57 17745 52:14 235085
11 52:14 235085 8:57 40292 1:01:12 275377

Attached to releases

Position Title Artist Format Date Country Label Catalog# Barcode
1/1 Carmen Georges Bizet; Maria Callas, Nicolai Gedda, Andréa Guiot, Robert Massard, Nadine Sautereau, Jane Berbié, Claude Cales, Chœur René Duclos, Chœurs d'enfants Jean Pesneaud, Orchestre de l'Opéra National de Paris, Georges Prêtre CD EMI Classics (absorbed into Warner Classics since 2013-07-19) 5 66663 2 724356666320