Disc ID “vgFkkRysE6vJ9Dpq685x1JzPHKA-

CD TOC details

Full TOC: 1 11 169107 150 12320 27020 42092 53647 68367 84485 102565 119202 135725 152680
Disc ID: vgFkkRysE6vJ9Dpq685x1JzPHKA-
FreeDB: 8808cc0b
Total tracks: 11
Total length: 37:35
Track details:
Track Start Length End
Time Sectors Time Sectors Time Sectors
1 0:02 150 2:42 12170 2:44 12320
2 2:44 12320 3:16 14700 6:00 27020
3 6:00 27020 3:21 15072 9:21 42092
4 9:21 42092 2:34 11555 11:55 53647
5 11:55 53647 3:16 14720 15:12 68367
6 15:12 68367 3:35 16118 18:46 84485
7 18:46 84485 4:01 18080 22:48 102565
8 22:48 102565 3:42 16637 26:29 119202
9 26:29 119202 3:40 16523 30:10 135725
10 30:10 135725 3:46 16955 33:56 152680
11 33:56 152680 3:39 16427 37:35 169107

Attached to releases

Position Title Artist Format Date Country Label Catalog# Barcode
10/14 Capitol Records Concept Albums Frank Sinatra CD Capitol Records (imprint of Capitol Records, Inc.) 724359889627 724359889627