Disc ID “vS6fxgnzv8D0w0f.gs81N7W.YX8-

CD TOC details

Full TOC: 1 14 328655 150 20872 38135 72147 94250 108367 140275 158155 180145 195895 218595 240860 261490 277662
Disc ID: vS6fxgnzv8D0w0f.gs81N7W.YX8-
FreeDB: af111c0e
Total tracks: 14
Total length: 1:13:02
Track details:
Track Start Length End
Time Sectors Time Sectors Time Sectors
1 0:02 150 4:36 20722 4:38 20872
2 4:38 20872 3:50 17263 8:28 38135
3 8:28 38135 7:33 34012 16:02 72147
4 16:02 72147 4:55 22103 20:57 94250
5 20:57 94250 3:08 14117 24:05 108367
6 24:05 108367 7:05 31908 31:10 140275
7 31:10 140275 3:58 17880 35:09 158155
8 35:09 158155 4:53 21990 40:02 180145
9 40:02 180145 3:30 15750 43:32 195895
10 43:32 195895 5:03 22700 48:35 218595
11 48:35 218595 4:57 22265 53:31 240860
12 53:31 240860 4:35 20630 58:07 261490
13 58:07 261490 3:36 16172 1:01:42 277662
14 1:01:42 277662 11:20 50993 1:13:02 328655

Attached to releases

Position Title Artist Format Date Country Label Catalog# Barcode
1/1 Blonde on Blonde (Cover: "2-Record Set on 1 Compact Disc") Bob Dylan CD Columbia (imprint owned by CBS between 1938–1990 within US/CA/MX; owned worldwide by Sony Music Entertainment since 1991 except in JP) CGK 841 074640084126
1/1 Blonde on Blonde Bob Dylan CD Columbia (imprint owned by CBS between 1938–1990 within US/CA/MX; owned worldwide by Sony Music Entertainment since 1991 except in JP) CD 644114 2
1/1 Blonde on Blonde Bob Dylan CD Columbia (imprint owned by CBS between 1938–1990 within US/CA/MX; owned worldwide by Sony Music Entertainment since 1991 except in JP) 512352 2, 5123522000, COL 512352-2 5099751235224
1/1 Blonde on Blonde Bob Dylan CD Columbia (imprint owned by CBS between 1938–1990 within US/CA/MX; owned worldwide by Sony Music Entertainment since 1991 except in JP) CK 92400 827969240021
1/1 Blonde on Blonde Bob Dylan SACD Columbia (imprint owned by CBS between 1938–1990 within US/CA/MX; owned worldwide by Sony Music Entertainment since 1991 except in JP) CS 841 074640084164
1/1 Blonde on Blonde Bob Dylan CD Columbia (imprint owned by CBS between 1938–1990 within US/CA/MX; owned worldwide by Sony Music Entertainment since 1991 except in JP) 512352 5 5099751235255
1/1 Blonde on Blonde Bob Dylan SACD SME Records (Japanese imprint - not equivalent to "Sony Music Entertainment") SRGS 4531
1/1 Blonde on Blonde Bob Dylan CD Sony Records International (Japanese TEXTLESS walking eye imprint) MHCP-373 4562109407969
1/1 Blonde on Blonde Bob Dylan CD Columbia (imprint owned by CBS between 1938–1990 within US/CA/MX; owned worldwide by Sony Music Entertainment since 1991 except in JP) 5123525000 5099751235255
1/1 Blonde on Blonde Bob Dylan CD Columbia (imprint owned by CBS between 1938–1990 within US/CA/MX; owned worldwide by Sony Music Entertainment since 1991 except in JP) CDCBS 66012 5099706601227
1/1 Blonde on Blonde Bob Dylan CD Sony BMG Music Entertainment (Aug 5, 2004 - Oct 1, 2008; do not use if a specific sub-label is available) 82876736032 828767360324
1/1 Blonde on Blonde Bob Dylan CD Columbia (imprint owned by CBS between 1938–1990 within US/CA/MX; owned worldwide by Sony Music Entertainment since 1991 except in JP) 88697139782 886971397826
1/1 Blonde on Blonde Bob Dylan CD Columbia (imprint owned by CBS between 1938–1990 within US/CA/MX; owned worldwide by Sony Music Entertainment since 1991 except in JP) CK 64411 [none]
8/10 The Bob Dylan 60's Collection Bob Dylan CD Columbia (imprint owned by CBS between 1938–1990 within US/CA/MX; owned worldwide by Sony Music Entertainment since 1991 except in JP) 88697 51773 2 886975177325
1/1 Blonde on Blonde Bob Dylan Blu-spec CD Sony Music Japan International Inc. (Do not use as a label, see the annotation.) SICP 20091 4547366044904
1/1 Blonde on Blonde Bob Dylan CD Sony Music (global brand, excluding JP, owned by Sony Music Entertainment; for use as release label only when no sub-label/imprint is specified) 88697594202 886975942022