Disc ID “u9_5xYENpY1P0fZX.yZH3t0gxTg-

CD TOC details

Full TOC: 1 12 246708 150 18951 35938 59498 78921 100731 126773 148336 166576 181458 203059 226835
Disc ID: u9_5xYENpY1P0fZX.yZH3t0gxTg-
FreeDB: 9d0cd70c
Total tracks: 12
Total length: 54:49
Track details:
Track Start Length End
Time Sectors Time Sectors Time Sectors
1 0:02 150 4:11 18801 4:13 18951
2 4:13 18951 3:46 16987 7:59 35938
3 7:59 35938 5:14 23560 13:13 59498
4 13:13 59498 4:19 19423 17:32 78921
5 17:32 78921 4:51 21810 22:23 100731
6 22:23 100731 5:47 26042 28:10 126773
7 28:10 126773 4:48 21563 32:58 148336
8 32:58 148336 4:03 18240 37:01 166576
9 37:01 166576 3:18 14882 40:19 181458
10 40:19 181458 4:48 21601 45:07 203059
11 45:07 203059 5:17 23776 50:24 226835
12 50:24 226835 4:25 19873 54:49 246708

Attached to releases

Position Title Artist Format Date Country Label Catalog# Barcode
8/14 Capitol Records Concept Albums Frank Sinatra CD Capitol Records (imprint of Capitol Records, Inc.) 724359889627 724359889627