Disc ID “su3Uz0xO_Lwi8WEWf0eVP3eSBYM-

CD TOC details

Full TOC: 1 14 328700 150 20900 38155 72165 94270 108352 140295 158175 180130 195895 218584 240862 261487 277650
Disc ID: su3Uz0xO_Lwi8WEWf0eVP3eSBYM-
FreeDB: b1111c0e
Total tracks: 14
Total length: 1:13:03
Track details:
Track Start Length End
Time Sectors Time Sectors Time Sectors
1 0:02 150 4:37 20750 4:39 20900
2 4:39 20900 3:50 17255 8:29 38155
3 8:29 38155 7:33 34010 16:02 72165
4 16:02 72165 4:55 22105 20:57 94270
5 20:57 94270 3:08 14082 24:05 108352
6 24:05 108352 7:06 31943 31:11 140295
7 31:11 140295 3:58 17880 35:09 158175
8 35:09 158175 4:53 21955 40:02 180130
9 40:02 180130 3:30 15765 43:32 195895
10 43:32 195895 5:03 22689 48:34 218584
11 48:34 218584 4:57 22278 53:31 240862
12 53:31 240862 4:35 20625 58:06 261487
13 58:06 261487 3:36 16163 1:01:42 277650
14 1:01:42 277650 11:21 51050 1:13:03 328700

Attached to releases

Position Title Artist Format Date Country Label Catalog# Barcode
1/1 Blonde on Blonde (Cover: "2-Record Set on 1 Compact Disc") Bob Dylan CD Columbia (imprint owned by CBS between 1938–1990 within US/CA/MX; owned worldwide by Sony Music Entertainment since 1991 except in JP) CGK 841 074640084126
1/1 Blonde on Blonde Bob Dylan CD Columbia (imprint owned by CBS between 1938–1990 within US/CA/MX; owned worldwide by Sony Music Entertainment since 1991 except in JP) CD 644114 2
1/1 Blonde on Blonde Bob Dylan CD Columbia (imprint owned by CBS between 1938–1990 within US/CA/MX; owned worldwide by Sony Music Entertainment since 1991 except in JP) 512352 2, 5123522000, COL 512352-2 5099751235224
1/1 Blonde on Blonde Bob Dylan CD Columbia (imprint owned by CBS between 1938–1990 within US/CA/MX; owned worldwide by Sony Music Entertainment since 1991 except in JP) CK 92400 827969240021
1/1 Blonde on Blonde Bob Dylan SACD Columbia (imprint owned by CBS between 1938–1990 within US/CA/MX; owned worldwide by Sony Music Entertainment since 1991 except in JP) CS 841 074640084164
1/1 Blonde on Blonde Bob Dylan CD Columbia (imprint owned by CBS between 1938–1990 within US/CA/MX; owned worldwide by Sony Music Entertainment since 1991 except in JP) 512352 5 5099751235255
1/1 Blonde on Blonde Bob Dylan SACD SME Records (Japanese imprint - not equivalent to "Sony Music Entertainment") SRGS 4531
1/1 Blonde on Blonde Bob Dylan CD Sony Records International (Japanese TEXTLESS walking eye imprint) MHCP-373 4562109407969
1/1 Blonde on Blonde Bob Dylan CD Columbia (imprint owned by CBS between 1938–1990 within US/CA/MX; owned worldwide by Sony Music Entertainment since 1991 except in JP) 5123525000 5099751235255
1/1 Blonde on Blonde Bob Dylan CD Columbia (imprint owned by CBS between 1938–1990 within US/CA/MX; owned worldwide by Sony Music Entertainment since 1991 except in JP) CDCBS 66012 5099706601227
1/1 Blonde on Blonde Bob Dylan CD Sony BMG Music Entertainment (Aug 5, 2004 - Oct 1, 2008; do not use if a specific sub-label is available) 82876736032 828767360324
1/1 Blonde on Blonde Bob Dylan CD Columbia (imprint owned by CBS between 1938–1990 within US/CA/MX; owned worldwide by Sony Music Entertainment since 1991 except in JP) 88697139782 886971397826
1/1 Blonde on Blonde Bob Dylan CD Columbia (imprint owned by CBS between 1938–1990 within US/CA/MX; owned worldwide by Sony Music Entertainment since 1991 except in JP) CK 64411 [none]
8/10 The Bob Dylan 60's Collection Bob Dylan CD Columbia (imprint owned by CBS between 1938–1990 within US/CA/MX; owned worldwide by Sony Music Entertainment since 1991 except in JP) 88697 51773 2 886975177325
1/1 Blonde on Blonde Bob Dylan Blu-spec CD Sony Music Japan International Inc. (Do not use as a label, see the annotation.) SICP 20091 4547366044904
1/1 Blonde on Blonde Bob Dylan CD Sony Music (global brand, excluding JP, owned by Sony Music Entertainment; for use as release label only when no sub-label/imprint is specified) 88697594202 886975942022
1/1 Blonde on Blonde Bob Dylan Blu-spec CD Sony Records International (Japanese TEXTLESS walking eye imprint) SICP 30028 4547366189926