Disc ID “qHuN_5Ds7lWperNEpyAJgxeem_8-

CD TOC details

Full TOC: 1 7 216112 150 44230 91202 135035 165195 180510 194412
Disc ID: qHuN_5Ds7lWperNEpyAJgxeem_8-
FreeDB: 4f0b3f07
Total tracks: 7
Total length: 48:01
Track details:
Track Start Length End
Time Sectors Time Sectors Time Sectors
1 0:02 150 9:48 44080 9:50 44230
2 9:50 44230 10:26 46972 20:16 91202
3 20:16 91202 9:44 43833 30:00 135035
4 30:00 135035 6:42 30160 36:43 165195
5 36:43 165195 3:24 15315 40:07 180510
6 40:07 180510 3:05 13902 43:12 194412
7 43:12 194412 4:49 21700 48:01 216112

Attached to releases

Position Title Artist Format Date Country Label Catalog# Barcode
2/2 The Complete Science Fiction Sessions Ornette Coleman CD Columbia (imprint owned by CBS between 1938–1990 within US/CA/MX; owned worldwide by Sony Music Entertainment since 1991 except in JP), Legacy (Legacy Recordings) C2K 63569 074646356920