Disc ID “nfR6SNkN6UacKpGaHLz2BPYCSlQ-

CD TOC details

Full TOC: 1 11 151425 183 14870 24208 35850 57408 72783 90190 107673 121558 129003 131458
Disc ID: nfR6SNkN6UacKpGaHLz2BPYCSlQ-
FreeDB: 8407e10b
Total tracks: 11
Total length: 33:39
Track details:
Track Start Length End
Time Sectors Time Sectors Time Sectors
1 0:02 183 3:16 14687 3:18 14870
2 3:18 14870 2:05 9338 5:23 24208
3 5:23 24208 2:35 11642 7:58 35850
4 7:58 35850 4:47 21558 12:45 57408
5 12:45 57408 3:25 15375 16:10 72783
6 16:10 72783 3:52 17407 20:03 90190
7 20:03 90190 3:53 17483 23:56 107673
8 23:56 107673 3:05 13885 27:01 121558
9 27:01 121558 1:39 7445 28:40 129003
10 28:40 129003 0:33 2455 29:13 131458
11 29:13 131458 4:26 19967 33:39 151425

Attached to releases

Position Title Artist Format Date Country Label Catalog# Barcode
1/1 Moods Neil Diamond CD MCA Records (1967–2003; name as in imprint from 1972–1990) 250 438-2 022925043825