Disc ID β€œndS9AGaLSh5YgPvYzbiV.0jaUE0-”

CD TOC details

Full TOC: 1 14 274693 150 19983 39895 58030 77395 97388 114870 135803 152465 170720 193120 210918 233575 251593
Disc ID: ndS9AGaLSh5YgPvYzbiV.0jaUE0-
FreeDB: a60e4c0e
Total tracks: 14
Total length: 1:01:03
Track details:
Track Start Length End
Time Sectors Time Sectors Time Sectors
1 0:02 150 4:24 19833 4:26 19983
2 4:26 19983 4:25 19912 8:52 39895
3 8:52 39895 4:02 18135 12:54 58030
4 12:54 58030 4:18 19365 17:12 77395
5 17:12 77395 4:27 19993 21:39 97388
6 21:39 97388 3:53 17482 25:32 114870
7 25:32 114870 4:39 20933 30:11 135803
8 30:11 135803 3:42 16662 33:53 152465
9 33:53 152465 4:03 18255 37:56 170720
10 37:56 170720 4:59 22400 42:55 193120
11 42:55 193120 3:57 17798 46:52 210918
12 46:52 210918 5:02 22657 51:54 233575
13 51:54 233575 4:00 18018 55:55 251593
14 55:55 251593 5:08 23100 1:01:03 274693

Attached to releases

Position Title Artist Format Date Country Label Catalog# Barcode
1/1 Talk on Corners The Corrs CD 143 Records, Atlantic (Warner Music imprint), Lava (imprint of Lava Music, LLC since 2009) 83106-2 075678310621