Disc ID “nM6oMCinbEu3gUWrO.R1pGah2no-”

CD TOC details

Full TOC: 1 12 139917 150 12107 27575 36750 48512 59202 70882 83032 91990 110417 118902 128562
Disc ID: nM6oMCinbEu3gUWrO.R1pGah2no-
FreeDB: a307470c
Total tracks: 12
Total length: 31:06
Track details:
Track Start Length End
Time Sectors Time Sectors Time Sectors
1 0:02 150 2:39 11957 2:41 12107
2 2:41 12107 3:26 15468 6:08 27575
3 6:08 27575 2:02 9175 8:10 36750
4 8:10 36750 2:37 11762 10:47 48512
5 10:47 48512 2:23 10690 13:09 59202
6 13:09 59202 2:36 11680 15:45 70882
7 15:45 70882 2:42 12150 18:27 83032
8 18:27 83032 1:59 8958 20:27 91990
9 20:27 91990 4:06 18427 24:32 110417
10 24:32 110417 1:53 8485 26:25 118902
11 26:25 118902 2:09 9660 28:34 128562
12 28:34 128562 2:31 11355 31:06 139917

Attached to releases

Position Title Artist Format Date Country Label Catalog# Barcode
13/14 Capitol Records Concept Albums Frank Sinatra CD Capitol Records (imprint of Capitol Records, Inc.) 724359889627 724359889627