Disc ID “mlTYEzFwwU3kKdAmNO5HMA9fbAg-

CD TOC details

Full TOC: 1 12 178326 150 12648 28746 43494 53817 73965 89163 104061 121809 137007 152355 165003
Disc ID: mlTYEzFwwU3kKdAmNO5HMA9fbAg-
FreeDB: a709470c
Total tracks: 12
Total length: 39:38
Track details:
Track Start Length End
Time Sectors Time Sectors Time Sectors
1 0:02 150 2:47 12498 2:49 12648
2 2:49 12648 3:35 16098 6:23 28746
3 6:23 28746 3:17 14748 9:40 43494
4 9:40 43494 2:18 10323 11:58 53817
5 11:58 53817 4:29 20148 16:26 73965
6 16:26 73965 3:23 15198 19:49 89163
7 19:49 89163 3:19 14898 23:07 104061
8 23:07 104061 3:57 17748 27:04 121809
9 27:04 121809 3:23 15198 30:27 137007
10 30:27 137007 3:25 15348 33:51 152355
11 33:51 152355 2:49 12648 36:40 165003
12 36:40 165003 2:58 13323 39:38 178326

Attached to releases

Position Title Artist Format Date Country Label Catalog# Barcode
11/14 Capitol Records Concept Albums Frank Sinatra CD Capitol Records (imprint of Capitol Records, Inc.) 724359889627 724359889627