Disc ID “kQ_aCfaHhWNRz.ou_qUWzofuiY8-

CD TOC details

Full TOC: 1 10 345860 150 27043 66853 102798 136571 174670 212250 244101 274346 305630
Disc ID: kQ_aCfaHhWNRz.ou_qUWzofuiY8-
FreeDB: 8212010a
Total tracks: 10
Total length: 1:16:51
Track details:
Track Start Length End
Time Sectors Time Sectors Time Sectors
1 0:02 150 5:59 26893 6:01 27043
2 6:01 27043 8:51 39810 14:51 66853
3 14:51 66853 7:59 35945 22:51 102798
4 22:51 102798 7:30 33773 30:21 136571
5 30:21 136571 8:28 38099 38:49 174670
6 38:49 174670 8:21 37580 47:10 212250
7 47:10 212250 7:05 31851 54:15 244101
8 54:15 244101 6:43 30245 1:00:58 274346
9 1:00:58 274346 6:57 31284 1:07:55 305630
10 1:07:55 305630 8:56 40230 1:16:51 345860

Attached to releases

Position Title Artist Format Date Country Label Catalog# Barcode
2/2 Goa: Neo Full On Various Artists CD Yellow Sunshine Explosion Recordings YSE070-2 5028557107022