Disc ID “je2gCCrOWlVy.T5Flvc4iaoEaFI-”

CD TOC details

Full TOC: 1 12 177522 150 12620 28710 43288 53538 73654 88803 103633 121295 136406 151727 164333
Disc ID: je2gCCrOWlVy.T5Flvc4iaoEaFI-
FreeDB: 9f093c0c
Total tracks: 12
Total length: 39:27
Track details:
Track Start Length End
Time Sectors Time Sectors Time Sectors
1 0:02 150 2:46 12470 2:48 12620
2 2:48 12620 3:35 16090 6:23 28710
3 6:23 28710 3:14 14578 9:37 43288
4 9:37 43288 2:17 10250 11:54 53538
5 11:54 53538 4:28 20116 16:22 73654
6 16:22 73654 3:22 15149 19:44 88803
7 19:44 88803 3:18 14830 23:02 103633
8 23:02 103633 3:55 17662 26:57 121295
9 26:57 121295 3:21 15111 30:19 136406
10 30:19 136406 3:24 15321 33:43 151727
11 33:43 151727 2:48 12606 36:31 164333
12 36:31 164333 2:56 13189 39:27 177522

Attached to releases

Position Title Artist Format Date Country Label Catalog# Barcode
11/14 Capitol Records Concept Albums Frank Sinatra CD Capitol Records (imprint of Capitol Records, Inc.) 724359889627 724359889627