Disc ID “jNPiGoTHote3l3i_Yq84DeWh6IM-

CD TOC details

Full TOC: 1 20 219840 150 9590 10212 13625 16970 20725 54170 60415 87432 89940 94942 96705 100957 111600 138062 140495 152597 178947 186522 208772
Disc ID: jNPiGoTHote3l3i_Yq84DeWh6IM-
FreeDB: 1b0b7114
Total tracks: 20
Total length: 48:51
Track details:
Track Start Length End
Time Sectors Time Sectors Time Sectors
1 0:02 150 2:06 9440 2:08 9590
2 2:08 9590 0:08 622 2:16 10212
3 2:16 10212 0:46 3413 3:02 13625
4 3:02 13625 0:45 3345 3:46 16970
5 3:46 16970 0:50 3755 4:36 20725
6 4:36 20725 7:26 33445 12:02 54170
7 12:02 54170 1:23 6245 13:26 60415
8 13:26 60415 6:00 27017 19:26 87432
9 19:26 87432 0:33 2508 19:59 89940
10 19:59 89940 1:07 5002 21:06 94942
11 21:06 94942 0:24 1763 21:29 96705
12 21:29 96705 0:57 4252 22:26 100957
13 22:26 100957 2:22 10643 24:48 111600
14 24:48 111600 5:53 26462 30:41 138062
15 30:41 138062 0:32 2433 31:13 140495
16 31:13 140495 2:41 12102 33:55 152597
17 33:55 152597 5:51 26350 39:46 178947
18 39:46 178947 1:41 7575 41:27 186522
19 41:27 186522 4:57 22250 46:24 208772
20 46:24 208772 2:28 11068 48:51 219840

Attached to releases

Position Title Artist Format Date Country Label Catalog# Barcode
2/3 Weihnachtsoratorium Johann Sebastian Bach; Gächinger Kantorei Stuttgart, Bach‐Collegium Stuttgart, Helmuth Rilling CD Hänssler Classic
2/3 Weihnachts-Oratorium, BWV 248 Johann Sebastian Bach; Arleen Augér, Julia Hamari, Peter Schreier, Wolfgang Schöne, Gächinger Kantorei Stuttgart, Bach‐Collegium Stuttgart, Helmuth Rilling CD Sony Classical S3K 39 229 5099703922929