Disc ID “htXDy7y9dZyJ4eG5khYsQo__igk-

CD TOC details

Full TOC: 1 16 183635 150 12622 27330 38305 52297 61797 73280 81942 93525 105397 119035 129235 141972 152732 161227 173840
Disc ID: htXDy7y9dZyJ4eG5khYsQo__igk-
FreeDB: e0098e10
Total tracks: 16
Total length: 40:48
Track details:
Track Start Length End
Time Sectors Time Sectors Time Sectors
1 0:02 150 2:46 12472 2:48 12622
2 2:48 12622 3:16 14708 6:04 27330
3 6:04 27330 2:26 10975 8:31 38305
4 8:31 38305 3:07 13992 11:37 52297
5 11:37 52297 2:07 9500 13:44 61797
6 13:44 61797 2:33 11483 16:17 73280
7 16:17 73280 1:55 8662 18:13 81942
8 18:13 81942 2:34 11583 20:47 93525
9 20:47 93525 2:38 11872 23:25 105397
10 23:25 105397 3:02 13638 26:27 119035
11 26:27 119035 2:16 10200 28:43 129235
12 28:43 129235 2:50 12737 31:33 141972
13 31:33 141972 2:23 10760 33:56 152732
14 33:56 152732 1:53 8495 35:50 161227
15 35:50 161227 2:48 12613 38:38 173840
16 38:38 173840 2:11 9795 40:48 183635

Attached to releases

Position Title Artist Format Date Country Label Catalog# Barcode
1/1 Love Me Tender Elvis Presley CD Ariola Express 295 052-201 4007192950522