Disc ID “fsWrSumytwyHKuGZtDuTTwLgiwA-

CD TOC details

Full TOC: 1 3 59486 150 17009 38388
Disc ID: fsWrSumytwyHKuGZtDuTTwLgiwA-
FreeDB: 13031703
Total tracks: 3
Total length: 13:13
Track details:
Track Start Length End
Time Sectors Time Sectors Time Sectors
1 0:02 150 3:45 16859 3:47 17009
2 3:47 17009 4:45 21379 8:32 38388
3 8:32 38388 4:41 21098 13:13 59486

Attached to releases

Position Title Artist Format Date Country Label Catalog# Barcode
1/1 My Secret Friend IAMX + Imogen Heap CD 61seconds A981580-01