Disc ID “erR7anQaLQY1o6h5.tRh1BgHTEc-

CD TOC details

Full TOC: 1 8 273455 150 73910 91095 108710 131840 187390 203022 257467
Disc ID: erR7anQaLQY1o6h5.tRh1BgHTEc-
FreeDB: 780e3c08
Total tracks: 8
Total length: 1:00:46
Track details:
Track Start Length End
Time Sectors Time Sectors Time Sectors
1 0:02 150 16:23 73760 16:25 73910
2 16:25 73910 3:49 17185 20:15 91095
3 20:15 91095 3:55 17615 24:09 108710
4 24:09 108710 5:08 23130 29:18 131840
5 29:18 131840 12:21 55550 41:39 187390
6 41:39 187390 3:28 15632 45:07 203022
7 45:07 203022 12:06 54445 57:13 257467
8 57:13 257467 3:33 15988 1:00:46 273455

Attached to releases

Position Title Artist Format Date Country Label Catalog# Barcode
1/1 Sketches of Spain (remaster) Miles Davis CD Columbia (imprint owned by CBS between 1938–1990 within US/CA/MX; owned worldwide by Sony Music Entertainment since 1991 except in JP), Legacy (Legacy Recordings) CK 65142 074646514221
1/1 Sketches of Spain (remaster) Miles Davis CD Columbia (imprint owned by CBS between 1938–1990 within US/CA/MX; owned worldwide by Sony Music Entertainment since 1991 except in JP), Legacy (Legacy Recordings) CK 65142 5099706514220
1/1 Sketches of Spain (remaster) Miles Davis CD Columbia (imprint owned by CBS between 1938–1990 within US/CA/MX; owned worldwide by Sony Music Entertainment since 1991 except in JP), Legacy (Legacy Recordings) CK 65142 074646514221