Disc ID “edXt70zLWyQOa2CJLwWoeWPOcpA-

CD TOC details

Full TOC: 1 20 298600 150 13665 27992 42342 57232 72092 85985 98887 112085 125417 139155 153475 167347 178192 189465 208475 227952 241072 254730 274942
Disc ID: edXt70zLWyQOa2CJLwWoeWPOcpA-
FreeDB: 270f8b14
Total tracks: 20
Total length: 1:06:21
Track details:
Track Start Length End
Time Sectors Time Sectors Time Sectors
1 0:02 150 3:00 13515 3:02 13665
2 3:02 13665 3:11 14327 6:13 27992
3 6:13 27992 3:11 14350 9:25 42342
4 9:25 42342 3:19 14890 12:43 57232
5 12:43 57232 3:18 14860 16:01 72092
6 16:01 72092 3:05 13893 19:06 85985
7 19:06 85985 2:52 12902 21:58 98887
8 21:58 98887 2:56 13198 24:54 112085
9 24:54 112085 2:58 13332 27:52 125417
10 27:52 125417 3:03 13738 30:55 139155
11 30:55 139155 3:11 14320 34:06 153475
12 34:06 153475 3:05 13872 37:11 167347
13 37:11 167347 2:25 10845 39:36 178192
14 39:36 178192 2:30 11273 42:06 189465
15 42:06 189465 4:13 19010 46:20 208475
16 46:20 208475 4:20 19477 50:39 227952
17 50:39 227952 2:55 13120 53:34 241072
18 53:34 241072 3:02 13658 56:36 254730
19 56:36 254730 4:29 20212 1:01:06 274942
20 1:01:06 274942 5:15 23658 1:06:21 298600

Attached to releases

Position Title Artist Format Date Country Label Catalog# Barcode
1/1 Ken Burns Jazz Sidney Bechet CD Columbia (imprint owned by CBS between 1938–1990 within US/CA/MX; owned worldwide by Sony Music Entertainment since 1991 except in JP) CK 61441 9399700084610