Disc ID “eZknD8Mlp38acMPoY5Fzj7lKoGg-

CD TOC details

Full TOC: 1 12 136758 183 8930 21303 31985 40568 55963 66773 77423 96250 105098 116098 127038
Disc ID: eZknD8Mlp38acMPoY5Fzj7lKoGg-
FreeDB: 90071d0c
Total tracks: 12
Total length: 30:23
Track details:
Track Start Length End
Time Sectors Time Sectors Time Sectors
1 0:02 183 1:57 8747 1:59 8930
2 1:59 8930 2:45 12373 4:44 21303
3 4:44 21303 2:22 10682 7:06 31985
4 7:06 31985 1:54 8583 9:01 40568
5 9:01 40568 3:25 15395 12:26 55963
6 12:26 55963 2:24 10810 14:50 66773
7 14:50 66773 2:22 10650 17:12 77423
8 17:12 77423 4:11 18827 21:23 96250
9 21:23 96250 1:58 8848 23:21 105098
10 23:21 105098 2:27 11000 25:48 116098
11 25:48 116098 2:26 10940 28:14 127038
12 28:14 127038 2:10 9720 30:23 136758

Attached to releases

Position Title Artist Format Date Country Label Catalog# Barcode
1/1 Elvis Elvis Presley CD RCA (RCA Records: simple ‘RCA’ or 'RCA' with lightning bolt in circle) 74321 90603 2 743219060327
1/5 Original Album Classics Elvis Presley CD Legacy (Legacy Recordings), RCA (RCA Records: simple ‘RCA’ or 'RCA' with lightning bolt in circle) 88697295572 886972955728