Disc ID “dLE0Zi6bQdRajM0TP.VnNiYCgZ4-

CD TOC details

Full TOC: 1 21 343988 150 1591 19584 25739 42511 47743 72056 86595 110930 132629 136096 160301 184014 202534 208440 222122 225407 229419 249392 265990 286914
Disc ID: dLE0Zi6bQdRajM0TP.VnNiYCgZ4-
FreeDB: 2411e815
Total tracks: 21
Total length: 1:16:27
Track details:
Track Start Length End
Time Sectors Time Sectors Time Sectors
1 0:02 150 0:19 1441 0:21 1591
2 0:21 1591 4:00 17993 4:21 19584
3 4:21 19584 1:22 6155 5:43 25739
4 5:43 25739 3:44 16772 9:27 42511
5 9:27 42511 1:10 5232 10:37 47743
6 10:37 47743 5:24 24313 16:01 72056
7 16:01 72056 3:14 14539 19:15 86595
8 19:15 86595 5:24 24335 24:39 110930
9 24:39 110930 4:49 21699 29:28 132629
10 29:28 132629 0:46 3467 30:15 136096
11 30:15 136096 5:23 24205 35:37 160301
12 35:37 160301 5:16 23713 40:54 184014
13 40:54 184014 4:07 18520 45:00 202534
14 45:00 202534 1:19 5906 46:19 208440
15 46:19 208440 3:02 13682 49:22 222122
16 49:22 222122 0:44 3285 50:05 225407
17 50:05 225407 0:53 4012 50:59 229419
18 50:59 229419 4:26 19973 55:25 249392
19 55:25 249392 3:41 16598 59:07 265990
20 59:07 265990 4:39 20924 1:03:46 286914
21 1:03:46 286914 12:41 57074 1:16:27 343988

Attached to releases

Position Title Artist Format Date Country Label Catalog# Barcode
1/1 The College Dropout Kanye West CD Roc‐A‐Fella Records 9862061 602498620618
1/1 The College Dropout Kanye West CD Roc‐A‐Fella Records B0002030-02 602498617397
1/1 The College Dropout (edited/clean version) Kanye West CD Roc‐A‐Fella Records B0002035-02 602498617403