Disc ID “bcead89jN.hwYnColG1dGyT0Hlw-

CD TOC details

Full TOC: 1 13 184620 182 13132 23432 36707 50245 66282 86545 99407 115770 129307 141757 157982 169020
Disc ID: bcead89jN.hwYnColG1dGyT0Hlw-
FreeDB: a9099b0d
Total tracks: 13
Total length: 41:02
Track details:
Track Start Length End
Time Sectors Time Sectors Time Sectors
1 0:02 182 2:53 12950 2:55 13132
2 2:55 13132 2:17 10300 5:12 23432
3 5:12 23432 2:57 13275 8:09 36707
4 8:09 36707 3:01 13538 11:10 50245
5 11:10 50245 3:34 16037 14:44 66282
6 14:44 66282 4:30 20263 19:14 86545
7 19:14 86545 2:51 12862 22:05 99407
8 22:05 99407 3:38 16363 25:44 115770
9 25:44 115770 3:00 13537 28:44 129307
10 28:44 129307 2:46 12450 31:30 141757
11 31:30 141757 3:36 16225 35:06 157982
12 35:06 157982 2:27 11038 37:34 169020
13 37:34 169020 3:28 15600 41:02 184620

Attached to releases

Position Title Artist Format Date Country Label Catalog# Barcode
1/1 Back in Town Mel Tormé & The Mel-Tones CD Verve (aka “Verve Records”, US jazz) 314-511522-2