Disc ID “b46IDkLb1mwtl4E7yiYB7vE13yI-

CD TOC details

Full TOC: 1 14 274697 150 20002 39915 58050 77415 97407 114890 135822 152485 170737 193140 210930 233590 251612
Disc ID: b46IDkLb1mwtl4E7yiYB7vE13yI-
FreeDB: ab0e4c0e
Total tracks: 14
Total length: 1:01:03
Track details:
Track Start Length End
Time Sectors Time Sectors Time Sectors
1 0:02 150 4:25 19852 4:27 20002
2 4:27 20002 4:26 19913 8:52 39915
3 8:52 39915 4:02 18135 12:54 58050
4 12:54 58050 4:18 19365 17:12 77415
5 17:12 77415 4:27 19992 21:39 97407
6 21:39 97407 3:53 17483 25:32 114890
7 25:32 114890 4:39 20932 30:11 135822
8 30:11 135822 3:42 16663 33:53 152485
9 33:53 152485 4:03 18252 37:56 170737
10 37:56 170737 4:59 22403 42:55 193140
11 42:55 193140 3:57 17790 46:52 210930
12 46:52 210930 5:02 22660 51:55 233590
13 51:55 233590 4:00 18022 55:55 251612
14 55:55 251612 5:08 23085 1:01:03 274697

Attached to releases

Position Title Artist Format Date Country Label Catalog# Barcode
1/1 Talk on Corners The Corrs CD 143 Records, Atlantic (Warner Music imprint), Lava (imprint of Lava Music, LLC since 2009) 83106-2 075678310621
1/1 Talk on Corners The Corrs CD 143 Records, Atlantic (Warner Music imprint), Lava (imprint of Lava Music, LLC since 2009) 7567-83106-2 075678310621
2/5 Original Album Series The Corrs CD Atlantic (Warner Music imprint), Rhino (reissue label) 5052498531929