Disc ID “Z1oJTzFuyGoZL.KudrO0EUFNPOM-

CD TOC details

Full TOC: 1 12 175033 150 15082 30145 41337 57305 78127 93775 103620 116422 132227 145407 157720
Disc ID: Z1oJTzFuyGoZL.KudrO0EUFNPOM-
FreeDB: 79091b0c
Total tracks: 12
Total length: 38:54
Track details:
Track Start Length End
Time Sectors Time Sectors Time Sectors
1 0:02 150 3:19 14932 3:21 15082
2 3:21 15082 3:21 15063 6:42 30145
3 6:42 30145 2:29 11192 9:11 41337
4 9:11 41337 3:33 15968 12:44 57305
5 12:44 57305 4:38 20822 17:22 78127
6 17:22 78127 3:29 15648 20:50 93775
7 20:50 93775 2:11 9845 23:02 103620
8 23:02 103620 2:51 12802 25:52 116422
9 25:52 116422 3:31 15805 29:23 132227
10 29:23 132227 2:56 13180 32:19 145407
11 32:19 145407 2:44 12313 35:03 157720
12 35:03 157720 3:51 17313 38:54 175033

Attached to releases

Position Title Artist Format Date Country Label Catalog# Barcode
7/14 Capitol Records Concept Albums Frank Sinatra CD Capitol Records (imprint of Capitol Records, Inc.) 724359889627 724359889627