Disc ID “YqEyn43rOZKl48j5pW1GcCPUWfg-

CD TOC details

Full TOC: 1 7 267387 150 48426 89710 122261 158076 190100 234954
Disc ID: YqEyn43rOZKl48j5pW1GcCPUWfg-
FreeDB: 4d0deb07
Total tracks: 7
Total length: 59:25
Track details:
Track Start Length End
Time Sectors Time Sectors Time Sectors
1 0:02 150 10:44 48276 10:46 48426
2 10:46 48426 9:10 41284 19:56 89710
3 19:56 89710 7:14 32551 27:10 122261
4 27:10 122261 7:58 35815 35:08 158076
5 35:08 158076 7:07 32024 42:15 190100
6 42:15 190100 9:58 44854 52:13 234954
7 52:13 234954 7:12 32433 59:25 267387

Attached to releases

Position Title Artist Format Date Country Label Catalog# Barcode
1/1 Blue Train John Coltrane CD Blue Note 7243 4 95326 2 5 724349532625
1/1 Blue Train John Coltrane CD Blue Note 7243 5 91721 2 5 724359172125
1/1 Blue Train John Coltrane CD Blue Note CDP 7 46095 2