Disc ID “XgnvZLMrY5Y3jH7i1ILVBj.LJOw-

CD TOC details

Full TOC: 1 11 151270 187 14825 24212 35797 57362 72730 90150 107625 121550 128950 131455
Disc ID: XgnvZLMrY5Y3jH7i1ILVBj.LJOw-
FreeDB: 9107de0b
Total tracks: 11
Total length: 33:37
Track details:
Track Start Length End
Time Sectors Time Sectors Time Sectors
1 0:02 187 3:15 14638 3:18 14825
2 3:18 14825 2:05 9387 5:23 24212
3 5:23 24212 2:34 11585 7:57 35797
4 7:57 35797 4:48 21565 12:45 57362
5 12:45 57362 3:25 15368 16:10 72730
6 16:10 72730 3:52 17420 20:02 90150
7 20:02 90150 3:53 17475 23:55 107625
8 23:55 107625 3:06 13925 27:01 121550
9 27:01 121550 1:39 7400 28:39 128950
10 28:39 128950 0:33 2505 29:13 131455
11 29:13 131455 4:24 19815 33:37 151270

Attached to releases

Position Title Artist Format Date Country Label Catalog# Barcode
1/1 Moods Neil Diamond CD MCA Records (1967–2003; name as in imprint from 1972–1990) 250 438-2 022925043825
1/1 Moods Neil Diamond CD MCA Records (1967–2003; name as in imprint from 1972–1990) DIDX-272, MCAD-37194 [none]