Disc ID “XGrBoLjjj4TK1tgOw4tCalceoFk-

CD TOC details

Full TOC: 1 16 319866 150 20789 42459 61777 85209 104854 126902 148951 166919 183317 206611 218014 239399 261589 279550 303108
Disc ID: XGrBoLjjj4TK1tgOw4tCalceoFk-
FreeDB: f610a610
Total tracks: 16
Total length: 1:11:05
Track details:
Track Start Length End
Time Sectors Time Sectors Time Sectors
1 0:02 150 4:35 20639 4:37 20789
2 4:37 20789 4:49 21670 9:26 42459
3 9:26 42459 4:18 19318 13:44 61777
4 13:44 61777 5:12 23432 18:56 85209
5 18:56 85209 4:22 19645 23:18 104854
6 23:18 104854 4:54 22048 28:12 126902
7 28:12 126902 4:54 22049 33:06 148951
8 33:06 148951 4:00 17968 37:06 166919
9 37:06 166919 3:39 16398 40:44 183317
10 40:44 183317 5:11 23294 45:55 206611
11 45:55 206611 2:32 11403 48:27 218014
12 48:27 218014 4:45 21385 53:12 239399
13 53:12 239399 4:56 22190 58:08 261589
14 58:08 261589 3:59 17961 1:02:07 279550
15 1:02:07 279550 5:14 23558 1:07:21 303108
16 1:07:21 303108 3:43 16758 1:11:05 319866

Attached to releases

Position Title Artist Format Date Country Label Catalog# Barcode
1/1 Awake Josh Groban Medium