Disc ID “TNHX3.qSVg3jT1GN72s3H75r_do-

CD TOC details

Full TOC: 1 13 329366 150 25179 29823 46790 73275 84783 101883 123175 135289 149498 165707 180516 200359
Disc ID: TNHX3.qSVg3jT1GN72s3H75r_do-
FreeDB: b011250d
Total tracks: 13
Total length: 1:13:12
Track details:
Track Start Length End
Time Sectors Time Sectors Time Sectors
1 0:02 150 5:34 25029 5:36 25179
2 5:36 25179 1:02 4644 6:38 29823
3 6:38 29823 3:46 16967 10:24 46790
4 10:24 46790 5:53 26485 16:17 73275
5 16:17 73275 2:33 11508 18:50 84783
6 18:50 84783 3:48 17100 22:38 101883
7 22:38 101883 4:44 21292 27:22 123175
8 27:22 123175 2:42 12114 30:04 135289
9 30:04 135289 3:09 14209 33:13 149498
10 33:13 149498 3:36 16209 36:49 165707
11 36:49 165707 3:17 14809 40:07 180516
12 40:07 180516 4:25 19843 44:31 200359
13 44:31 200359 28:40 129007 1:13:12 329366

Attached to releases

Position Title Artist Format Date Country Label Catalog# Barcode
1/1 Heaven's Dust Ekova CD SK 60684 5099706068426