Disc ID “QN5Q21bUazsVwVvf0LZGHtQM_f0-

CD TOC details

Full TOC: 1 22 216525 150 33827 35505 46880 51370 70447 71207 74567 80430 105785 108632 113625 134770 138035 142592 157170 162615 167797 169832 179200 199152 202405
Disc ID: QN5Q21bUazsVwVvf0LZGHtQM_f0-
FreeDB: 550b4516
Total tracks: 22
Total length: 48:07
Track details:
Track Start Length End
Time Sectors Time Sectors Time Sectors
1 0:02 150 7:29 33677 7:31 33827
2 7:31 33827 0:22 1678 7:53 35505
3 7:53 35505 2:32 11375 10:25 46880
4 10:25 46880 1:00 4490 11:25 51370
5 11:25 51370 4:14 19077 15:39 70447
6 15:39 70447 0:10 760 15:49 71207
7 15:49 71207 0:45 3360 16:34 74567
8 16:34 74567 1:18 5863 17:52 80430
9 17:52 80430 5:38 25355 23:30 105785
10 23:30 105785 0:38 2847 24:08 108632
11 24:08 108632 1:07 4993 25:15 113625
12 25:15 113625 4:42 21145 29:57 134770
13 29:57 134770 0:44 3265 30:40 138035
14 30:40 138035 1:01 4557 31:41 142592
15 31:41 142592 3:14 14578 34:56 157170
16 34:56 157170 1:13 5445 36:08 162615
17 36:08 162615 1:09 5182 37:17 167797
18 37:17 167797 0:27 2035 37:44 169832
19 37:44 169832 2:05 9368 39:49 179200
20 39:49 179200 4:26 19952 44:15 199152
21 44:15 199152 0:43 3253 44:59 202405
22 44:59 202405 3:08 14120 48:07 216525

Attached to releases

Position Title Artist Format Date Country Label Catalog# Barcode
3/3 Weihnachtsoratorium Johann Sebastian Bach; Gächinger Kantorei Stuttgart, Bach‐Collegium Stuttgart, Helmuth Rilling CD Hänssler Classic
3/3 Weihnachtsoratorium, BWV 248 J.S. Bach; Helmuth Rilling CD CBS Records Masterworks M3K 39229 [none]
3/3 Weihnachts-Oratorium, BWV 248 Johann Sebastian Bach; Arleen Augér, Julia Hamari, Peter Schreier, Wolfgang Schöne, Gächinger Kantorei Stuttgart, Bach‐Collegium Stuttgart, Helmuth Rilling CD Sony Classical S3K 39 229 5099703922929