Disc ID “LbMw4KyrDDW9x.wHRQfUj_JLogk-

CD TOC details

Full TOC: 1 16 225022 150 13720 29475 41137 57832 70535 85837 98440 112705 124372 139157 152597 169570 181737 195037 208977
Disc ID: LbMw4KyrDDW9x.wHRQfUj_JLogk-
FreeDB: c60bb610
Total tracks: 16
Total length: 50:00
Track details:
Track Start Length End
Time Sectors Time Sectors Time Sectors
1 0:02 150 3:01 13570 3:03 13720
2 3:03 13720 3:30 15755 6:33 29475
3 6:33 29475 2:35 11662 9:08 41137
4 9:08 41137 3:43 16695 12:51 57832
5 12:51 57832 2:49 12703 15:40 70535
6 15:40 70535 3:24 15302 19:04 85837
7 19:04 85837 2:48 12603 21:53 98440
8 21:53 98440 3:10 14265 25:03 112705
9 25:03 112705 2:36 11667 27:38 124372
10 27:38 124372 3:17 14785 30:55 139157
11 30:55 139157 2:59 13440 33:55 152597
12 33:55 152597 3:46 16973 37:41 169570
13 37:41 169570 2:42 12167 40:23 181737
14 40:23 181737 2:57 13300 43:20 195037
15 43:20 195037 3:06 13940 46:26 208977
16 46:26 208977 3:34 16045 50:00 225022

Attached to releases

Position Title Artist Format Date Country Label Catalog# Barcode
1/1 In the Wee Small Hours Frank Sinatra CD Capitol Records (imprint of Capitol Records, Inc.) CDP 7 96826 2 077779682621
1/1 In the Wee Small Hours (remastered) Frank Sinatra CD Capitol Records (imprint of Capitol Records, Inc.) 72434 94755 2 6 724349475526
2/14 Capitol Records Concept Albums Frank Sinatra CD Capitol Records (imprint of Capitol Records, Inc.) 724359889627 724359889627
1/1 In the Wee Small Hours (BMG Direct) Frank Sinatra CD Capitol Records (imprint of Capitol Records, Inc.), BMG Direct Marketing, Inc. 72434 94755 2 6, D 123171