Disc ID “IU7AxhD0aR3.1FED7AV2rhqiPkQ-”

CD TOC details

Full TOC: 1 15 310425 150 19112 41650 65115 85212 105022 123530 138907 160142 182040 205570 226080 250550 268777 289282
Disc ID: IU7AxhD0aR3.1FED7AV2rhqiPkQ-
FreeDB: c710290f
Total tracks: 15
Total length: 1:08:59
Track details:
Track Start Length End
Time Sectors Time Sectors Time Sectors
1 0:02 150 4:13 18962 4:15 19112
2 4:15 19112 5:01 22538 9:15 41650
3 9:15 41650 5:13 23465 14:28 65115
4 14:28 65115 4:28 20097 18:56 85212
5 18:56 85212 4:24 19810 23:20 105022
6 23:20 105022 4:07 18508 27:27 123530
7 27:27 123530 3:25 15377 30:52 138907
8 30:52 138907 4:43 21235 35:35 160142
9 35:35 160142 4:52 21898 40:27 182040
10 40:27 182040 5:14 23530 45:41 205570
11 45:41 205570 4:33 20510 50:14 226080
12 50:14 226080 5:26 24470 55:41 250550
13 55:41 250550 4:03 18227 59:44 268777
14 59:44 268777 4:33 20505 1:04:17 289282
15 1:04:17 289282 4:42 21143 1:08:59 310425

Attached to releases

Position Title Artist Format Date Country Label Catalog# Barcode
1/3 The Complete Blue Note Recordings Herbie Nichols CD Mosaic Records (US jazz reissues) MD3-118 [none]