Disc ID “FsBoSRsTpCZQXB.CJyOGvuGMst4-

CD TOC details

Full TOC: 1 11 151746 150 15303 22225 37301 47762 55398 67371 75998 102422 114109 125056
Disc ID: FsBoSRsTpCZQXB.CJyOGvuGMst4-
FreeDB: 9807e50b
Total tracks: 11
Total length: 33:43
Track details:
Track Start Length End
Time Sectors Time Sectors Time Sectors
1 0:02 150 3:22 15153 3:24 15303
2 3:24 15303 1:32 6922 4:56 22225
3 4:56 22225 3:21 15076 8:17 37301
4 8:17 37301 2:19 10461 10:37 47762
5 10:37 47762 1:42 7636 12:19 55398
6 12:19 55398 2:40 11973 14:58 67371
7 14:58 67371 1:55 8627 16:53 75998
8 16:53 75998 5:52 26424 22:46 102422
9 22:46 102422 2:36 11687 25:21 114109
10 25:21 114109 2:26 10947 27:47 125056
11 27:47 125056 5:56 26690 33:43 151746

Attached to releases

Position Title Artist Format Date Country Label Catalog# Barcode
3/3 Matthäuspassion Johann Sebastian Bach; Stuttgarter Kantorei, Ensemble 94, Kay Johannsen CD Stuttgarter Kantorei